Home| All Programs| Today added Progs| Download Status| Customers opinion| Helpdesk| Shopping cart

Program Search:

Shopping Cart:




*Note: Minimum order cost: €20
Maximum Total Price: €1500
We Recommend:
Axia Futures - Volume Profiling with Strategy Development (real price 960) €99 buy download

Axia Futures - Volume Profiling with Strategy DevelopmentWEBRip | English | AVI | 1920 x 1080 | AVC ~5404 Kbps | 25 fps
MP3 | 192 Kbps | 44.1 KHz | 2 channels | ~11 hours | 23.33 GBGenre: eLearning Video / Trading, Stock
Axia Futures started with a group of ambitious individuals who appreciate independent thinking and most importantly the value of ethics, honesty and friendship. We are a team of traders who are also close friends that share the same ideology on how to develop trading talent.For too long, training programmes across the city have become stale and dormant by not evolving with the changing market environment. We know that to stay ahead of market opportunity, we need a team that shares this ethos of constant reinvention and that is why we have started Axia Futures. We are not only Educators but also Traders and thus what is best for us will ensure is best for our community.
As a collective group of successful traders, with a combined experience of 50 years on our London Trading Floor, we know what is required to be successful so we ensure that all parts of our training reflect these fundamental characteristics.

PART 1 - What, How and Why of Volume Profiling
PART 2 - Participants within the Auction Process
PART 3 - Volume Profiling Elements
PART 4 - Volume Profiling in Action
PART 5 - Principles: Symmetry, Day Types, Price Behaviour and Trading Process
PART 6 - Bracketing, Trending, Market Balance, Trade Location and Market Open Strategies
PART 7 - Auction Identifiers, Point of Control, Anomalies and High/Low Volume Areas
PART 8 - Control Identifiers, Profile Strategies and Volume Profiling Templating
PART 9 - Anomaly Volume Profiling Strategies
PART 10 - Momentum Volume Profiling Strategies
PART 11 - Trending Volume Profiling Strategies
PART 12 - Reversal Volume Profiling Strategies

also You can find my other last: Trading-posts

MediaInfo: General
Complete name : MODULE 2 - THE PROFICIENCY PART 6-3 Bracketing vs Trending(cont).avi
Format : AVI
Format/Info : Audio Video Interleave
File size : 241 MiB
Duration : 6 min 0 s
Overall bit rate : 5 609 kb/s
Writing application : Lavf53.24.2

Video
ID : 0
Format : xvid
Codec ID : xvid
Duration : 6 min 0 s
Bit rate : 5 404 kb/s
Width : 1 920 pixels
Height : 1 080 pixels
Display aspect ratio : 16:9
Frame rate : 25.000 FPS
Bits/(Pixel*Frame) : 0.104
Stream size : 232 MiB (96%)

Audio
ID : 1
Format : MPEG Audio
Format version : Version 1
Format profile : Layer 3
Format settings : Joint stereo / MS Stereo
Codec ID : 55
Codec ID/Hint : MP3
Duration : 6 min 0 s
Bit rate mode : Constant
Bit rate : 192 kb/s
Channel(s) : 2 channels
Sampling rate : 44.1 kHz
Compression mode : Lossy
Stream size : 8.25 MiB (3%)
Alignment : Aligned on interleaves
Interleave, duration : 26 ms (0.65 video frame)
Writing library : LAME3.98.4
Screenshots
Exclusive eLearning Videos ParRus-blog ← add to bookmarks



Download File Size:20.44 GB


Axia Futures - Volume Profiling with Strategy Development (real price 960)
€99
Customers who bought this program also bought:
  • Adobe CC 2018 Collection x64 €260
  • Kindle - eBook Collection (1905-2017) 1380 English books €50
  • Microsoft Office 2019 ProPlus Include Visio and Project RTM build 16.0.10325.20118 x64 (1 dvd) €99
  • Autodesk AutoCAD Architecture 2020 (1 dvd) €100
  • Autodesk Revit 2020 Multilingual (1 dvd) €140
  • Autodesk Alias Concept 2020 €200
  • Microsoft Office 2019 for Mac 16.33 VL Multilingual €99
  • Claris FileMaker Pro 19.0.1.116 for Mac €50

  • Home| All Programs| Today added Progs| Download Status| Customers opinion| Helpdesk| Shopping cart      
    Copyright 2006-2020 ©   LPStore   All Rights Reserved





    Autodesk AutoCAD 2022 €100

                 

    SolidWorks 2022 €115






    Intuit QuickBooks Enterprise Solutions 2021 €40


    Mindjet MindManager 2022 €22


    Chief Architect Premier X13 €50






    DxO PhotoLab 5 ELITE €25


    SketchUp Pro 2021 €30


    Corel Painter 2022 €40